Code:
Source : obaid2k13

General
Complete name                            : H:\Downloads\AkaashVaani (2013) pDVDRip XviD AC3 - (DUS).avi
Format                                   : AVI
Format/Info                              : Audio Video Interleave
File size                                : 791 MiB
Duration                                 : 2h 14mn
Overall bit rate                         : 822 Kbps

Video
ID                                       : 0
Format                                   : MPEG-4 Visual
Format profile                           : Advanced Simple@L5
Format settings, BVOP                    : 2
Format settings, QPel                    : No
Format settings, GMC                     : No warppoints
Format settings, Matrix                  : Default (H.263)
Codec ID                                 : XVID
Codec ID/Hint                            : XviD
Duration                                 : 2h 14mn
Bit rate                                 : 686 Kbps
Width                                    : 640 pixels
Height                                   : 272 pixels
Display aspect ratio                     : 2.35:1
Frame rate                               : 23.976 fps
Color space                              : YUV
Chroma subsampling                       : 4:2:0
Bit depth                                : 8 bits
Scan type                                : Progressive
Compression mode                         : Lossy
Bits/(Pixel*Frame)                       : 0.164
Stream size                              : 660 MiB (83%)
Writing library                          : XviD 1.2.1 (UTC 2008-12-04)

Audio
ID                                       : 1
Format                                   : AC-3
Format/Info                              : Audio Coding 3
Mode extension                           : CM (complete main)
Format settings, Endianness              : Big
Codec ID                                 : 2000
Duration                                 : 2h 14mn
Bit rate mode                            : Constant
Bit rate                                 : 128 Kbps
Channel(s)                               : 2 channels
Channel positions                        : Front: L R
Sampling rate                            : 48.0 KHz
Bit depth                                : 16 bits
Compression mode                         : Lossy
Stream size                              : 123 MiB (16%)
Alignment                                : Aligned on interleaves
Interleave, duration                     : 64 ms (1.53 video frames)
Interleave, preload duration             : 192 ms
Title                                    : VTS_01_1 T80 2_0ch 192Kbps DELAY 0ms_new






SINGLE DIRECT FAST LINKS
Code:
http://extabit.com/file/2duc52faiycyo/Akaash.Vaani.2013.pDVDRip.XviD.AC3.DUS.avi

Code:
http://uploaded.net/file/05qjgasz/Akaash.Vaani.2013.pDVDRip.XviD.AC3.DUS.avi
Code:
http://lumfile.com/x54n5ld5zfbm/Akaash.Vaani.2013.pDVDRip.XviD.AC3.DUS.avi.html