Code:
Media Info -
General
Complete name : Sudh Desi Romance (2013) 1CD XVID Scam RIP - Team IcTv Exclusive.avi
Format : AVI
Format/Info : Audio Video Interleave
File size : 606 MiB
Duration : 1h 54mn
Overall bit rate : 741 Kbps

Video
ID : 0
Format : MPEG-4 Visual
Format profile : Advanced Simple@L5
Format settings, BVOP : 2
Format settings, QPel : No
Format settings, GMC : No warppoints
Format settings, Matrix : Default (H.263)
Codec ID : XVID
Codec ID/Hint : XviD
Duration : 1h 54mn
Bit rate : 605 Kbps
Width : 576 pixels
Height : 208 pixels
Display aspect ratio : 2.769
Frame rate : 25.000 fps
Color space : YUV
Chroma subsampling : 4:2:0
Bit depth : 8 bits
Scan type : Progressive
Compression mode : Lossy
Bits/(Pixel*Frame) : 0.202
Stream size : 495 MiB (82%)
Writing library : XviD 1.2.1 (UTC 2008-12-04)

Audio
ID : 1
Format : AC-3
Format/Info : Audio Coding 3
Mode extension : CM (complete main)
Codec ID : 2000
Duration : 1h 54mn
Bit rate mode : Constant
Bit rate : 128 Kbps
Channel(s) : 2 channels
Channel positions : Front: L R
Sampling rate : 48.0 KHz
Bit depth : 16 bits
Compression mode : Lossy
Stream size : 105 MiB (17%)
Alignment : Aligned on interleaves
Interleave, duration : 64 ms (1.60 video frames)
Interleave, preload duration : 192 ms
Title : VTS_01_1 Tc0 L2 2ch 48 128 DELAY 0ms

Sample - http://www.sendspace.com/file/u5nzvm

Ripper : TJ_DA_King

Seeding 24x7... Extreme Seeding...










SINGLE LINKS
Code:
http://extabit.com/file/2dudp3bskbnuy/Sudh.Desi.Romance.2013.1CD.XVID.Scam.RIP-Team.IcTv.Exclusive.avi

Code:
http://uploaded.net/file/3zk60lc7/Sudh.Desi.Romance.2013.1CD.XVID.Scam.RIP-Team.IcTv.Exclusive.avi
Code:
http://lumfile.com/x309bzbyzyom/Sudh.Desi.Romance.2013.1CD.XVID.Scam.RIP-Team.IcTv.Exclusive.avi.html